Chiphell - 分享与交流用户体验

 找回密码
 加入我们
搜索
      
查看: 30016|回复: 190

新入LG G Tablet 8.3寸平板,非常满意

  [复制链接]
发表于 2014-1-7 11:45 | 显示全部楼层 |阅读模式
本帖最后由 wzcbj 于 2014-1-9 00:37 编辑

如题,在京东看到的,觉得不错,刚下单买了一台,打算送给老婆看片用。

特意跑来chh看,结果发现一个帖子都没有,这个LG的平板有这么不招大家喜欢吗?呵呵

个人感觉还是蛮不错的一个产品,lg也算是做的比较用心,价格也算公道。

等晚上到手我看看实际效果。
2017-01-09: 买回来用了两个晚上,非常满意。有必要发评测贴吗?看样子挺冷门的一个平板,我应该是chh的第一个LG G Tablet 8.3 用户了。
发表于 2014-1-7 11:59 | 显示全部楼层
LZ,就坐等你的评测了
发表于 2014-1-7 12:51 来自手机 | 显示全部楼层
我都想出了nexus7 2013,换它google play版本。
发表于 2014-1-7 13:15 | 显示全部楼层
楼主测下续航和屏幕素质吧
发表于 2014-1-7 17:01 来自手机 | 显示全部楼层
有个哥们发过一个帖子
买的港版
题目是什么伪开箱的。搜一下能搜到
之前俺也关注这平板来着
但是港水玩缺货还涨价
而且看帖子说续航就7 8个小时的样子
所以俺入了air 32g wifi
 楼主| 发表于 2014-1-7 20:25 | 显示全部楼层
正在用,屏幕真心是不错啊,看片子很爽。

刚刚搞定mx player + dts解码,现在用netgear genie连接到r6300 v2上接的usb3 移动硬盘,看1080p没有压力,轻松搞定。(试的是狮子王,问题大小8g左右)
发表于 2014-1-9 00:07 | 显示全部楼层
wzcbj 发表于 2014-1-7 20:25
正在用,屏幕真心是不错啊,看片子很爽。

刚刚搞定mx player + dts解码,现在用netgear genie连接到r6300  ...

楼主来个测评吧。。。
 楼主| 发表于 2014-1-9 00:28 | 显示全部楼层
有点懒了,不想说太多。

总体来说还是非常满意,绝对对得起2000这个价格。

个人对放弃ipad air和mini2,最后选择这个平板的决定表示不后悔,即使现在重新再来一次选择也还是这个结果。

另外今天新买的64gtf到了,插上之后感触颇多。苹果把内置存储空间当抢钱手段,我是极其看不顺眼的,某些android产品居然也学apple,更是无良。

但看这点,LG的这个平板就绝对可以称的上业界良心。

所有不能外接存储的手机和平板,都是刷流氓
 楼主| 发表于 2014-1-9 00:34 来自手机 | 显示全部楼层
特意用这个lg平板上chh,回帖为证。

装上chrome,打开网页的速度那是嗖嗖的
发表于 2014-1-9 08:45 | 显示全部楼层
S600现在买总觉得马上会落后啊!
 楼主| 发表于 2014-1-9 11:04 | 显示全部楼层
熊猫 发表于 2014-1-9 08:45
S600现在买总觉得马上会落后啊!

就算你现在买s805,也保不了多久。

对于1.7g 4核的s600来说,基本上除了高码率的视频和一些过于高端的游戏搞不定外,其他基本都够用了。

不过高码率1080p不能流畅的问题,还是有点烦人,我正在头疼。
 楼主| 发表于 2014-1-9 11:11 | 显示全部楼层
熊猫 发表于 2014-1-9 08:45
S600现在买总觉得马上会落后啊!

2014年应该是高频4核和8核主打,分辨率2560,3g内存。

2015年估计要上到4k分辨率,4g内存,64位CPU应该要普及了

所以现在是s600还是s800,到了明年年底,就是淘汰货,差别估计也就无所谓了。比如你现在看一两年前的手机,双核1g和1.2g还不是一个样?

发展太快,我觉得就不去care这些,能满足目前要求,价格不要太贵,大不了用1-2年再换一个就好了。
发表于 2014-1-9 12:53 | 显示全部楼层
wzcbj 发表于 2014-1-9 11:11
2014年应该是高频4核和8核主打,分辨率2560,3g内存。

2015年估计要上到4k分辨率,4g内存,64位CPU应该要 ...


我觉得不如买DELL Venue8 尝尝X86,淘宝才1100元不到!
发表于 2014-1-9 13:52 | 显示全部楼层
老的N7还没碰到不能放的片子,现在就是觉得屏幕有点小。
 楼主| 发表于 2014-1-9 13:58 | 显示全部楼层
wulongfashi 发表于 2014-1-9 13:52
老的N7还没碰到不能放的片子,现在就是觉得屏幕有点小。

今天再回去试试,昨天通过局域网共享想播放一个14g的电影,比较卡。

不知道是不是网络原因,晚上回去拷贝到sd卡上试试。
发表于 2014-1-9 14:56 来自手机 | 显示全部楼层
局域网共享看片还是win系统给力
 楼主| 发表于 2014-1-9 15:45 | 显示全部楼层
本帖最后由 wzcbj 于 2014-1-9 15:46 编辑
colourwp 发表于 2014-1-9 14:56
局域网共享看片还是win系统给力

我有点怀疑是es共享下的网络传输速度问题,后面再验证一下。

我用豌豆荚下载应用,经常看到下载速度有4m,5m,一些10几20M的应用都是飞快的就下载好了。

我家的网络还是挺高大上的:外网是电信100M光纤,路由器是netgear r6300 r2,ac新贵,chh上也是热门货,台式机都是超六类线跑千兆有线一般复制文件跑到100M是常态。

这个网络环境平时就是看个蓝光也不成问题,按说看个1080p应该是挺轻松的事情。LG这个平板是支持5g的,我也用5g了,挺奇怪的。

今天早上试用一下从r6300 v2上接的移动硬盘上复制电影文件到lg平板的sd卡上,跑的无线,居然之后1M附件的附近,大大出乎我的意料。估计问题和这个有关。

等我晚上更新。
发表于 2014-1-9 19:08 | 显示全部楼层
楼主单开个帖吧,记得放图!
发表于 2014-1-9 19:44 | 显示全部楼层
我看片也是ES+MX,路由器是网件3700.无线下载速度3-4M.
发表于 2014-1-9 19:47 | 显示全部楼层
colourwp 发表于 2014-1-9 14:56
局域网共享看片还是win系统给力

win平板APP不给力
 楼主| 发表于 2014-1-9 20:21 | 显示全部楼层
wulongfashi 发表于 2014-1-9 13:52
老的N7还没碰到不能放的片子,现在就是觉得屏幕有点小。

老兄,你用的是mx吗?有没有遇到不能硬解的情况?
 楼主| 发表于 2014-1-9 20:26 | 显示全部楼层
晚上试了一下,不是网速的问题,拷贝到本地tf卡里面也是卡。

看了一下mx,发现是不能硬解+和硬解,只能软件。

文件是这个,47分钟13g大小,大概每秒4M多点的码率,对电脑来说挺低,对平板好像是有点高。

Victoria's Secret Fashion Show 2013 12-10 1080i 4.2.2-35mbps-oki.ts

不过问题还是应该出现在不能硬解上。

请教一下各位兄弟,高通骁龙600的cpu,mx player要选择什么样的版本,用什么样的解码器?实在不太懂这个。

我下了一下MX Player Pro v1.7.10专业破解版——整合DTS音频支持解码包,安装文件为videoplayer_pro__1_7_10_neon_direct_signed.apk。这里的neon是什么意思?
 楼主| 发表于 2014-1-9 22:14 | 显示全部楼层
折腾了一晚上,还是没能 搞定这个ts的硬解,看属性也就是普通的MPEG-TS,bit rate : 35.5 Mbps。mx player pro 换了几个版本还是只能软解。

最后lbe优化了一下,关了一些开机启动的应用,然后貌似软件也就勉强流畅了。

Victoria's Secret Fashion Show 2013,应该都知道是什么吧?每年高清版出来我都会下下来看一看。

\\SKYHTPC\movie\download\Victoria's Secret Fashion Show 2013 12-10 1080i 4.2.2-35mbps-oki.ts
  General #1
    ID : 1 (0x1)
    Complete name : \\SKYHTPC\movie\download\Victoria's Secret Fashion Show 2013 12-10 1080i 4.2.2-35mbps-oki.ts
    Format : MPEG-TS
    File size : 13.5 GiB
    Duration : 47mn 5s
    Overall bit rate mode : Variable
    Overall bit rate : 41.0 Mbps
    Maximum Overall bit rate : 35.5 Mbps
  Video #4113
    ID : 4113 (0x1011)
    Menu ID : 1 (0x1)
    Format : MPEG Video
    Format version : Version 2
    Format profile : 4:2:[email protected]
    Format settings, BVOP : Yes
    Format settings, Matrix : Custom
    Format settings, GOP : M=3, N=15
    Codec ID : 2
    Duration : 47mn 5s
    Bit rate : 35.3 Mbps
    Width : 1 920 pixels
    Height : 1 080 pixels
    Display aspect ratio : 16:9
    Frame rate : 29.970 fps
    Standard : Component
    Color space : YUV
    Chroma subsampling : 4:2:2
    Bit depth : 8 bits
    Scan type : Interlaced
    Scan order : Top Field First
    Compression mode : Lossy
    Bits/(Pixel*Frame) : 0.569
    Stream size : 11.7 GiB (87%)
    Color primaries : BT.709
    Transfer characteristics : BT.709
    Matrix coefficients : BT.709
  Audio #4352
    ID : 4352 (0x1100)
    Menu ID : 1 (0x1)
    Format : DTS
    Format/Info : Digital Theater Systems
    Format profile : MA / Core
    Muxing mode : Stream extension
    Codec ID : 134
    Duration : 47mn 5s
    Bit rate mode : Variable
    Bit rate : 2 911 Kbps / 1 510 Kbps
    Channel(s) : 6 channels
    Channel positions : Front: L C R, Side: L R, LFE
    Sampling rate : 48.0 KHz
    Bit depth : 24 bits
    Compression mode : Lossless / Lossy
    Delay relative to video : 7ms
    Language : English
  Audio #4353
    ID : 4353 (0x1101)
    Menu ID : 1 (0x1)
    Format : MPEG Audio
    Format version : Version 1
    Format profile : Layer 2
    Mode : Joint stereo
    Codec ID : 4
    Duration : 47mn 5s
    Bit rate mode : Constant
    Bit rate : 256 Kbps
    Channel(s) : 2 channels
    Sampling rate : 48.0 KHz
    Compression mode : Lossy
    Delay relative to video : 20ms
    Stream size : 86.2 MiB (1%)
    Language : English
  Audio #4354
    ID : 4354 (0x1102)
    Menu ID : 1 (0x1)
    Format : MPEG Audio
    Format version : Version 1
    Format profile : Layer 2
    Mode : Joint stereo
    Mode extension : Intensity Stereo + MS Stereo
    Codec ID : 4
    Duration : 47mn 6s
    Bit rate mode : Constant
    Bit rate : 256 Kbps
    Channel(s) : 2 channels
    Sampling rate : 48.0 KHz
    Compression mode : Lossy
    Delay relative to video : 18ms
    Stream size : 86.2 MiB (1%)
    Language : English
  Text #4113-1
    ID : 4113 (0x1011)-1
    Menu ID : 1 (0x1)
    Format : EIA-708
    Muxing mode : A/53 / DTVCC Transport
    Muxing mode, more info : Muxed in Video #1
    Duration : 47mn 5s
    Bit rate mode : Constant
    Stream size : 0.00 Byte (0%)
  Text #4113-2
    ID : 4113 (0x1011)-2
    Menu ID : 1 (0x1)
    Format : EIA-708
    Muxing mode : A/53 / DTVCC Transport
    Muxing mode, more info : Muxed in Video #1
    Duration : 47mn 5s
    Bit rate mode : Constant
    Stream size : 0.00 Byte (0%)
 楼主| 发表于 2014-1-9 22:16 | 显示全部楼层
这是遇到的第一个不能硬解的视频,后面再找一些试试。

好在老婆看的一些连续剧大部分是720p的,可以轻轻松松搞定。

这个13g的大家伙只是用来测试一下。
发表于 2014-1-9 23:06 | 显示全部楼层
wzcbj 发表于 2014-1-9 22:16
这是遇到的第一个不能硬解的视频,后面再找一些试试。

好在老婆看的一些连续剧大部分是720p的,可以轻轻松 ...

单独来一贴吧
发表于 2014-1-9 23:17 | 显示全部楼层
貌似在安卓平板中,也算贵的了
 楼主| 发表于 2014-1-10 00:15 | 显示全部楼层
wzcbj 发表于 2014-1-9 22:16
这是遇到的第一个不能硬解的视频,后面再找一些试试。

好在老婆看的一些连续剧大部分是720p的,可以轻轻松 ...

刚才算了一下,46分钟就有13g大小,如果按照一般电影2个小时算,这个码率的电影大概要接近30g大小,这个已经快要达到蓝光高清的级别了。

现在虽然不能硬解,不过软件已经勉强算流畅了,可以满足了。平时应该不会用平板看这么高码率的片子。
发表于 2014-1-10 17:09 | 显示全部楼层
wzcbj 发表于 2014-1-10 00:15
刚才算了一下,46分钟就有13g大小,如果按照一般电影2个小时算,这个码率的电影大概要接近30g大小,这个 ...

平板还是适合看h.264重编码的MKV,一般10G左右的电影硬解都OK,当然10bit的肯定不行。
mxplayer你就不用折腾了,最近几次更新都是因为android版本更新频繁,解码器基本没啥变化
发表于 2014-1-12 15:16 来自手机 | 显示全部楼层
期待楼主的评测,目前担心的是屏幕漏光是否不可接受,还有以后是否可以刷原生的安卓。
发表于 2014-1-12 17:15 | 显示全部楼层
屏幕是好,但是看用途吧,如果看视频,16:9可用面积更大,但是其他用途还是觉得MINI2更好。所以,我有了N7 1代以后就不考虑再弄个安卓平板了。
您需要登录后才可以回帖 登录 | 加入我们

本版积分规则

小黑屋|手机版|Archiver|Chiphell ( 沪ICP备12027953号-5 )沪公网备310112100042806 上海市互联网违法与不良信息举报中心

GMT+8, 2021-5-17 17:31 , Processed in 0.011238 second(s), 7 queries , Gzip On, Redis On.

Powered by Discuz! X3.4

© 2007-2021 Chiphell.com All rights reserved.

快速回复 返回顶部 返回列表